left DivX Sinema Forum logo_right

Hoşgeldin Misafir ( Giriş | Kayıt Ol )

Sinema Filmleri

 Forum Rules Bölüm Kuralları...Duyuru Yayınlamadan Önce Mutlaka Okuyunuz

Children of the Corn: Genesis (2011) *AC3*

 
Konuya Cevap EkleYeni Konu Baslat
left > Children of the Corn: Genesis (2011) *AC3* seperator Ayarlar V right
sash®
mesaj Sep 5 2011, 06:23:09 AM
İleti #1


screw you
Group Icon

Grup: P2P Düzenleme
İleti: 21,242
Katılım: 19-January 05
Üye No.: 22,387



Children of the Corn: Genesis (2011)
forum resmi
Konu:

TIM and ALLIE seek shelter in a remote desert compound after becoming lost and stranded. A strange Manson-like character, PREACHER (Drago), reluctantly allows them inside with strict orders to be gone by morning and not wander "where you are not invited." At first, Preacher and his mail-order wife OKSANA (Nedeljakova) deny the faint screams and cries that emanate from one of the crumbling outbuildings. When Allie sneaks outside to investigate, she discovers that she and Tim have stumbled onto a bizarre cult worshiping an entity that may -- or may not -- dwell inside a haunted little boy.

IMDB:
IMDB
» Children of the Corn: Genesis (2011)

poster yok
Yönetmen: Joel Soisson
Tür: Horror,Thriller
Ülke: USA
Konu: Banicki, Dusty Burwell, Kai Caster, Kelen Coleman. A young couple tries to free an imprisoned child with catastrophic results.
Puan: 5.8 /10 (62 oy)
Süre: Dk.
Oyuncular (ilk 10) : J.J. Banicki, Dusty Burwell, Kai Caster, Kelen Coleman, Billy Drago, Barbara Nedeljakova, Tim Rock, Duane Whitaker

IMDB: http://www.imdb.com/title/tt1745672/
Sunum Bilgisi:
General
Complete name : Children.of.the.Corn.Genesis.2011.DVDRip.AC3.XviD-LiNKY.avi
Format : AVI
Format/Info : Audio Video Interleave
File size : 1.27 GiB
Duration : 1h 20mn
Overall bit rate : 2 261 Kbps
Writing application : VirtualDubMod 1.5.10.2 (build 2542/release)
Writing library : VirtualDubMod build 2542/release

Video
ID : 0
Format : MPEG-4 Visual
Format profile : Advanced Simple@L5
Format settings, BVOP : 2
Format settings, QPel : No
Format settings, GMC : No warppoints
Format settings, Matrix : Default (H.263)
Muxing mode : Packed bitstream
Codec ID : XVID
Codec ID/Hint : XviD
Duration : 1h 20mn
Bit rate : 1 867 Kbps
Width : 720 pixels
Height : 304 pixels
Display aspect ratio : 2.35:1
Frame rate : 25.000 fps
Color space : YUV
Chroma subsampling : 4:2:0
Bit depth : 8 bits
Scan type : Progressive
Compression mode : Lossy
Bits/(Pixel*Frame) : 0.341
Stream size : 1.05 GiB (83%)
Writing library : XviD 64

Audio
ID : 1
Format : AC-3
Format/Info : Audio Coding 3
Mode extension : CM (complete main)
Codec ID : 2000
Duration : 1h 20mn
Bit rate mode : Constant
Bit rate : 384 Kbps
Channel(s) : 6 channels
Channel positions : Front: L C R, Side: L R, LFE
Sampling rate : 48.0 KHz
Bit depth : 16 bits
Compression mode : Lossy
Stream size : 221 MiB (17%)
Alignment : Split accross interleaves
Interleave, duration : 40 ms (1.00 video frame)
Interleave, preload duration : 500 ms
ED2K:
eMule Download
Ekran Görüntüleri:
forum resmi
forum resmi
forum resmi
forum resmi
Üye ForumdaProfiline GitÖM
Go to the top of the page
+Quote Post
» Children of the Corn: Genesis (2011) - Children of the Corn: Genesis divx altyazıları
Altyazı AdıDilÇevirmenAltyazı Hakkında Notlar
Children of the Corn: Genesis (2011) 1CD 23.976fps İngilizce altyazı ingilizceDVD-RipChildren.Of.The.Corn.Genesis.2011.DVDRip.XviD-ViP3R
Children of the Corn: Genesis (2011) 1CD 23.976fps İngilizce altyazı ingilizceDVD-RipChildren.Of.The.Corn.Genesis.2011.DVDRip.XviD-ViP3R
Children of the Corn: Genesis (2011) 1CD 23.976fps İngilizce altyazı ingilizceDVD-RipChildren.Of.The.Corn.Genesis.2011.720p.BluRay.x264-UNTOUCHABLES
Children of the Corn: Genesis (2011) 1CD 23.976fps İngilizce altyazı ingilizceDVD-RipChildren.Of.The.Corn.Genesis.2011.720p.BluRay.x264-UNTOUCHABLES
Children of the Corn: Genesis (2011) 1CD 23.976fps Türkçe altyazı turkceM_Yamadag & JnRMnTChildren.Of.The.Corn.Genesis.2011.DVDRip.XviD-ViP3R
Children.of.the.Corn.Genesis.2011.DVDRip.Xvid.AC3-SiC
Children.of.the.Corn.Genesis.2011.DVDRip.XviD.AC3-AsA Güncel.
Children of the Corn: Genesis (2011) 1CD 23.976fps Türkçe altyazı turkceM_Yamadag & JnRMnTChildren.Of.The.Corn.Genesis.2011.720p.BluRay.x264-UNTOUCHABLES
Konuya Cevap EkleYeni Konu Baslat
1 kullanıcı bu başlığı okuyor (1 Misafir ve 0 Gizli Kullanıcı)
0 Üye:

 



rss Basit Görünüm Şuan: 31st October 2014 - 10:17:30 AM